<?xml version="1.0" standalone="no"?>
<!DOCTYPE svg PUBLIC "-//W3C//DTD SVG 1.1//EN" "http://www.w3.org/Graphics/SVG/1.1/DTD/svg11.dtd">
<svg xmlns="http://www.w3.org/2000/svg">
<defs >
<font id="Manrope" horiz-adv-x="1131" ><font-face
    font-family="Manrope ExtraLight"
    units-per-em="2000"
    panose-1="0 0 0 0 0 0 0 0 0 0"
    ascent="2132"
    descent="-600"
    alphabetic="0" />
<glyph unicode=" " horiz-adv-x="400" />
<glyph unicode="!" horiz-adv-x="721" d="M240 0V221H481V0H240ZM240 360V1440H481V360H240Z" />
<glyph unicode="&quot;" horiz-adv-x="934" d="M120 1080V1440H361V1080H120ZM493 1080V1440H734V1080H493Z" />
<glyph unicode="#" horiz-adv-x="1863" d="M377 2L483 392H120L180 619H543L605 854H242L304 1080H666L763 1440H998L900 1080H1146L1243 1440H1478L1380 1080H1743L1682 854H1320L1256 619H1619L1558 392H1196L1092 2H857L961 392H716L612 2H377ZM778 619H1022L1085
854H840L778 619Z" />
<glyph unicode="$" horiz-adv-x="1256" d="M517 -199V38H758V-199H517ZM517 1401V1638H758V1401H517ZM643 -30Q491 -30 371 26T175 184T77 426L315 464Q343 341 435 269T657 196Q781 196 861 254T941 403Q941 466 903 505T781 571L434 679Q131 773 131 1047Q131
1175 192 1270T366 1417T630 1468Q771 1467 881 1417T1065 1274T1170 1047L923 1002Q909 1073 868 1127T765 1211T627 1243Q554 1244 496 1221T404 1155T370 1059Q370 1000 417 958T568 886L827 811Q1014 757 1096 665T1179 419Q1179 285 1112 184T924 27T643 -30Z"
/>
<glyph unicode="%" horiz-adv-x="1801" d="M340 0L180 160L1461 1440L1621 1279L340 0ZM1321 -30Q1222 -30 1141 18T1010 148T961 330Q961 428 1011 510T1143 641T1321 690Q1420 690 1502 642T1632 512T1681 330Q1681 230 1633 149T1502 19T1321 -30ZM1321 176Q1362
176 1397 197T1454 253T1475 330Q1475 372 1454 407T1398 463T1321 484Q1279 484 1244 463T1188 407T1166 330Q1166 288 1187 253T1244 197T1321 176ZM480 750Q381 750 299 798T169 928T120 1110Q120 1208 170 1290T302 1421T480 1470Q579 1470 660 1422T791 1292T840
1110Q840 1010 791 929T661 799T480 750ZM480 956Q522 956 557 977T613 1033T634 1110Q634 1152 613 1187T557 1243T480 1264Q438 1264 403 1243T347 1187T326 1110Q326 1068 347 1033T403 977T480 956Z" />
<glyph unicode="&amp;" horiz-adv-x="1337" d="M617 -30Q497 -30 391 5T213 118Q156 181 130 255T100 415Q100 498 124 576T200 714Q220 738 243 756T291 790Q232 856 202 918T171 1064Q171 1190 239 1290T424 1434Q475 1453 527 1460T630 1467Q724 1467 811 1439T959
1346Q998 1309 1024 1263T1063 1167L825 1116Q811 1161 776 1193Q746 1222 705 1231T624 1241Q560 1241 511 1218Q462 1195 439 1156T415 1061Q415 1011 433 981T479 920Q497 900 523 876T577 826L939 491Q940 511 940 534T940 579V755H1152V494Q1152 440 1149
390T1137 306L1316 142L1161 -23L1022 109Q971 61 910 31T787 -12Q742 -23 701 -26T617 -30ZM627 199Q658 199 685 202T739 214Q776 225 802 240T849 271L468 621Q441 611 420 596T383 561Q364 536 354 503T343 429Q344 383 358 348T395 284Q431 238 498 219T627
199Z" />
<glyph unicode="&apos;" horiz-adv-x="521" d="M120 1080V1440H361V1080H120Z" />
<glyph unicode="(" horiz-adv-x="906" d="M646 -381Q529 -245 446 -74T320 286T280 660Q277 846 320 1034T446 1394T646 1701L824 1569Q704 1424 633 1276T530 975T498 660Q499 499 530 346T633 44T824 -248L646 -381Z" />
<glyph unicode=")" horiz-adv-x="906" d="M260 -381L82 -248Q202 -105 273 43T375 345T408 660Q407 821 376 974T274 1276T82 1569L260 1701Q377 1565 460 1394T586 1035T626 660Q629 474 586 286T460 -73T260 -381Z" />
<glyph unicode="*" horiz-adv-x="929" d="M309 727L136 852L287 1029L60 1090L126 1293L343 1204L328 1440H542L527 1204L743 1293L809 1090L583 1029L733 852L560 727L435 923L309 727Z" />
<glyph unicode="+" horiz-adv-x="1143" d="M478 268V626H120V815H478V1172H667V815H1023V626H667V268H478Z" />
<glyph unicode="," horiz-adv-x="607" d="M120 -255L134 -151Q180 -155 207 -136T243 -81T248 0H120V257H367V-10Q367 -141 305 -208T120 -255Z" />
<glyph unicode="-" horiz-adv-x="840" d="M120 536V725H720V536H120Z" />
<glyph unicode="." horiz-adv-x="607" d="M180 0V247H427V0H180Z" />
<glyph unicode="/" horiz-adv-x="866" d="M504 1440H746L362 0H120L504 1440Z" />
<glyph unicode="0" horiz-adv-x="1316" d="M658 -30Q505 -30 388 35T206 218T140 488V952Q140 1105 205 1222T388 1404T658 1470Q811 1470 927 1405T1110 1222T1176 952V488Q1176 335 1110 218T928 36T658 -30ZM658 199Q734 199 796 235T894 333T930 471V970Q930
1047 894 1108T796 1206T658 1243Q582 1243 520 1207T422 1109T386 970V471Q386 395 422 334T520 236T658 199Z" />
<glyph unicode="1" horiz-adv-x="876" d="M390 0V1177L120 1012V1278L390 1440H636V0H390Z" />
<glyph unicode="2" horiz-adv-x="1191" d="M100 2V212L716 761Q788 825 816 882T844 992Q844 1064 813 1120T728 1210T602 1243Q527 1243 470 1209T380 1117T350 994H102Q102 1138 166 1245T344 1411T607 1470Q745 1470 855 1409T1028 1239T1091 989Q1091 886
1063 816T980 687T842 556L405 169L383 229H1091V2H100Z" />
<glyph unicode="3" horiz-adv-x="1163" d="M552 -27Q444 -27 348 15T182 134T80 316L313 379Q338 293 404 247T551 201Q622 201 678 234T766 323T798 450Q798 557 729 629T551 701Q518 701 487 692T426 667L316 857L800 1271L821 1213H136V1440H1019V1212L630
838L628 909Q759 900 851 836T993 671T1043 450Q1043 314 977 206T799 36T552 -27Z" />
<glyph unicode="4" horiz-adv-x="1217" d="M738 0V238H100V463L561 1440H836L375 463H738V838H982V463H1117V238H982V0H738Z" />
<glyph unicode="5" horiz-adv-x="1172" d="M567 -30Q457 -30 362 15T199 141T100 327L332 389Q346 331 383 289T471 224T576 201Q646 201 704 235T796 326T830 454Q830 524 796 581T703 672T576 706Q493 706 439 676T355 612L149 678L193 1440H975V1214H322L412
1299L380 769L336 823Q392 874 466 899T609 924Q744 924 848 863T1012 695T1072 454Q1072 319 1002 210T818 35T567 -30Z" />
<glyph unicode="6" horiz-adv-x="1243" d="M638 -30Q497 -30 385 36T206 221T140 492V930Q140 1094 205 1215T389 1402T665 1468Q774 1468 872 1432T1046 1315L872 1146Q834 1191 780 1217T665 1243Q581 1243 518 1204T421 1100T386 963V724L342 772Q404 844 491
884T673 925Q809 925 913 864T1077 696T1137 453Q1137 318 1069 209T887 35T638 -30ZM638 201Q708 201 766 234T858 325T893 453Q893 523 859 581T768 673T640 708Q570 708 512 674T420 581T386 453Q386 385 419 328T510 236T638 201Z" />
<glyph unicode="7" horiz-adv-x="1067" d="M213 0L709 1212H80V1440H967V1212L473 0H213Z" />
<glyph unicode="8" horiz-adv-x="1225" d="M611 -30Q468 -30 357 28T183 189T120 425Q120 544 175 646T336 809L331 732Q248 795 203 877T157 1063Q157 1187 215 1278T376 1419T611 1470Q744 1470 846 1420T1007 1278T1066 1063Q1066 960 1023 878T891 730L890
808Q994 749 1049 647T1105 425Q1105 292 1042 189T867 28T611 -30ZM611 197Q717 197 783 255T850 425Q850 537 784 595T611 654Q505 654 440 596T375 425Q375 313 440 255T611 197ZM611 883Q700 883 755 927T811 1063Q811 1154 756 1198T611 1243Q523 1243 468
1199T412 1063Q412 972 467 928T611 883Z" />
<glyph unicode="9" horiz-adv-x="1243" d="M605 1468Q746 1468 859 1402T1037 1218T1103 947V508Q1103 345 1038 224T854 36T578 -30Q469 -30 372 7T198 123L371 292Q410 247 464 222T578 196Q662 196 725 235T823 338T858 475V714L901 666Q840 594 753 554T570
513Q435 513 331 575T167 743T107 985Q107 1120 175 1229T356 1403T605 1468ZM605 1238Q535 1238 477 1204T385 1113T351 985Q351 915 384 857T475 765T603 731Q673 731 731 765T823 857T858 985Q858 1053 824 1110T733 1203T605 1238Z" />
<glyph unicode=":" horiz-adv-x="685" d="M220 130V377H467V130H220ZM222 703V950H469V703H222Z" />
<glyph unicode=";" horiz-adv-x="687" d="M220 -255L234 -151Q280 -155 307 -136T343 -81T348 0H220V257H467V-10Q467 -141 405 -208T220 -255ZM220 833V1080H467V833H220Z" />
<glyph unicode="&lt;" horiz-adv-x="1275" d="M760 150L280 630L760 1110L910 961L568 630L910 299L760 150Z" />
<glyph unicode="=" horiz-adv-x="1500" d="M240 814V1003H1260V814H240ZM240 437V626H1260V437H240Z" />
<glyph unicode="&gt;" horiz-adv-x="1275" d="M514 150L365 299L706 630L365 961L514 1110L995 630L514 150Z" />
<glyph unicode="?" horiz-adv-x="1106" d="M401 391Q401 460 414 524T459 644Q486 697 519 728T593 791T684 876Q725 921 738 965T751 1061Q751 1094 744 1123T719 1173Q691 1210 647 1225T553 1241Q512 1241 475 1231T411 1198Q381 1174 367 1139T354 1062H100Q110
1162 154 1247T272 1384Q329 1426 400 1447T544 1468Q654 1468 751 1434T914 1322Q959 1271 982 1204T1006 1068Q1006 965 962 880T849 723Q817 689 788 663T735 613T694 561Q666 514 661 482T656 391H401ZM403 0V265H656V0H403Z" />
<glyph unicode="@" horiz-adv-x="1827" d="M911 -210Q745 -210 608 -157T370 -6T215 224T160 512Q160 706 218 852T380 1095T618 1241T903 1290Q1094 1290 1238 1232T1478 1074T1621 844T1667 572Q1664 376 1590 268T1346 160Q1265 160 1192 198T1090 309L1153
308Q1110 229 1038 198T891 166Q785 166 704 212T577 342T530 535Q530 648 578 731T710 859T895 904Q960 904 1031 878T1141 806L1100 752V876H1248L1245 499Q1245 422 1272 387T1348 351Q1400 351 1424 380T1455 458T1464 569Q1466 726 1415 828T1280 991T1102
1076T920 1101Q785 1101 680 1060T502 941T394 757T362 518Q366 390 407 290T522 121T696 15T920 -21Q982 -21 1043 -9T1158 25L1221 -153Q1149 -181 1071 -195T911 -210ZM905 357Q973 357 1020 396T1068 535Q1068 623 1028 668T912 714Q821 714 777 666T732 535Q732
452 777 405T905 357Z" />
<glyph unicode="A" horiz-adv-x="1341" d="M40 0L494 1440H847L1301 0H1053L641 1292H695L288 0H40ZM293 312V537H1049V312H293Z" />
<glyph unicode="B" horiz-adv-x="1262" d="M140 0V1440H711Q857 1440 950 1382T1089 1232T1135 1044Q1135 925 1079 842T925 730V780Q1061 749 1131 651T1202 428Q1202 300 1153 204T1008 54T769 0H140ZM384 227H739Q802 227 852 252T930 324T959 435Q959 493
934 539T861 612T746 640H384V227ZM384 865H708Q760 865 801 885T866 944T890 1040Q890 1115 842 1165T708 1215H384V865Z" />
<glyph unicode="C" horiz-adv-x="1477" d="M749 -30Q533 -30 379 64T143 328T60 720Q60 943 142 1112T379 1375T749 1470Q998 1470 1164 1346T1397 1010L1154 943Q1112 1084 1011 1163T749 1243Q604 1243 508 1178T363 996T313 720Q313 562 361 445T507 262T749
197Q910 197 1011 277T1154 497L1397 430Q1330 219 1164 95T749 -30Z" />
<glyph unicode="D" horiz-adv-x="1401" d="M140 0V1440H599Q617 1440 670 1439T774 1432Q945 1410 1063 1311T1243 1057T1304 720Q1304 537 1243 383T1064 130T774 8Q725 2 671 1T599 0H140ZM385 227H599Q629 227 675 229T758 238Q860 257 924 329T1018 504T1049
720Q1049 837 1018 940T923 1113T758 1202Q722 1210 676 1211T599 1213H385V227Z" />
<glyph unicode="E" horiz-adv-x="1170" d="M140 0V1440H1070V1214H381V859H950V633H381V226H1070V0H140Z" />
<glyph unicode="F" horiz-adv-x="1047" d="M140 0V1440H1007V1199H381V840H887V600H381V0H140Z" />
<glyph unicode="G" horiz-adv-x="1464" d="M734 -30Q594 -30 472 19T257 165T112 400T60 720Q60 956 148 1123T389 1380T734 1470Q1000 1470 1155 1347T1366 1000L1120 961Q1079 1089 986 1165T749 1242Q604 1244 508 1179T364 996T315 720Q315 562 363 446T507
264T749 197Q858 196 940 236T1074 359T1144 566H890V755H1400Q1402 739 1403 708T1404 671Q1404 467 1324 309T1093 60T734 -30Z" />
<glyph unicode="H" horiz-adv-x="1443" d="M140 0V1440H381V834H1063V1440H1303V0H1063V608H381V0H140Z" />
<glyph unicode="I" horiz-adv-x="561" d="M160 0V1440H401V0H160Z" />
<glyph unicode="J" horiz-adv-x="1001" d="M428 -30Q263 -30 154 56T0 288L238 345Q249 284 302 240T419 196Q461 196 508 218T578 291Q592 323 594 367T597 471V1440H841V471Q841 404 841 354T831 259T793 167Q734 65 639 18T428 -30Z" />
<glyph unicode="K" horiz-adv-x="1294" d="M140 0V1440H381V772L956 1440H1252L633 734L1294 0H988L381 672V0H140Z" />
<glyph unicode="L" horiz-adv-x="1067" d="M160 0V1440H401V226H1037V0H160Z" />
<glyph unicode="M" horiz-adv-x="1710" d="M140 0V1440H357L855 420L1353 1440H1570V0H1345V923L903 0H807L366 923V0H140Z" />
<glyph unicode="N" horiz-adv-x="1436" d="M140 0V1440H384L1052 425V1440H1296V0H1052L384 1015V0H140Z" />
<glyph unicode="O" horiz-adv-x="1499" d="M749 -30Q533 -30 379 64T143 328T60 720Q60 943 142 1112T379 1375T749 1470Q965 1470 1119 1376T1356 1112T1439 720Q1439 497 1357 328T1120 65T749 -30ZM749 197Q894 196 990 261T1135 444T1184 720Q1184 878 1136
994T991 1176T749 1243Q604 1244 508 1179T364 996T315 720Q315 562 363 446T507 264T749 197Z" />
<glyph unicode="P" horiz-adv-x="1277" d="M140 0V1440H735Q756 1440 789 1439T850 1432Q975 1413 1056 1349T1177 1188T1217 971Q1217 853 1177 756T1056 594T850 511Q822 507 789 505T735 503H381V0H140ZM381 728H725Q745 728 770 730T816 738Q876 753 910 791T959
877T974 971Q974 1017 960 1065T911 1152T816 1205Q795 1211 770 1212T725 1214H381V728Z" />
<glyph unicode="Q" horiz-adv-x="1499" d="M1267 -30L856 379L1007 530L1416 121L1267 -30ZM749 -30Q533 -30 379 64T143 328T60 720Q60 943 142 1112T379 1375T749 1470Q965 1470 1119 1376T1356 1112T1439 720Q1439 497 1357 328T1120 65T749 -30ZM749 197Q894
196 990 261T1135 444T1184 720Q1184 878 1136 994T991 1176T749 1243Q604 1244 508 1179T364 996T315 720Q315 562 363 446T507 264T749 197Z" />
<glyph unicode="R" horiz-adv-x="1320" d="M140 0V1440H735Q756 1440 789 1439T850 1432Q975 1413 1056 1349T1177 1188T1217 971Q1217 795 1128 669T855 512L752 503H381V0H140ZM967 0L683 586L928 640L1240 0H967ZM381 728H725Q745 728 770 730T816 738Q876
753 910 791T959 877T974 971Q974 1017 960 1065T911 1152T816 1205Q795 1211 770 1212T725 1214H381V728Z" />
<glyph unicode="S" horiz-adv-x="1315" d="M673 -30Q515 -30 389 25T181 182T77 426L327 464Q359 336 458 266T688 196Q765 196 833 220T943 290T986 403Q986 433 976 458T947 504T897 540T826 569L454 679Q406 693 351 716T246 781T165 887T133 1047Q133 1186
203 1280T393 1422T659 1468Q807 1467 923 1418T1117 1274T1227 1047L968 1002Q952 1078 907 1131T796 1213T656 1243Q584 1244 523 1222T424 1157T386 1059Q386 1006 418 973T497 920T594 887L852 815Q905 801 971 777T1098 710T1198 597T1238 419Q1238 307 1192
223T1066 82T886 -2T673 -30Z" />
<glyph unicode="T" horiz-adv-x="1213" d="M486 0V1214H20V1440H1193V1214H727V0H486Z" />
<glyph unicode="U" horiz-adv-x="1440" d="M720 -30Q548 -30 418 40T214 237T140 535V1438L384 1440V541Q384 460 411 396T486 288T594 220T720 197Q787 197 847 220T955 288T1029 397T1056 541V1440H1300V535Q1300 364 1227 237T1023 40T720 -30Z" />
<glyph unicode="V" horiz-adv-x="1281" d="M464 0L10 1440H258L638 234L1023 1440H1271L817 0H464Z" />
<glyph unicode="W" horiz-adv-x="1951" d="M444 0L23 1440H276L563 400L849 1438L1102 1440L1389 400L1675 1440H1928L1508 0H1270L975 1024L682 0H444Z" />
<glyph unicode="X" horiz-adv-x="1311" d="M20 0L508 728L34 1440H329L657 933L982 1440H1279L805 728L1291 0H996L657 523L317 0H20Z" />
<glyph unicode="Y" horiz-adv-x="1223" d="M490 0V590L0 1440H281L612 866L942 1440H1223L734 590V0H490Z" />
<glyph unicode="Z" horiz-adv-x="1327" d="M100 0V33L810 1214H150V1440H1227V1406L521 227H1210V0H100Z" />
<glyph unicode="[" horiz-adv-x="847" d="M280 -424V1794H717V1580H494V-210H717V-424H280Z" />
<glyph unicode="\" horiz-adv-x="866" d="M362 1440L746 0H504L120 1440H362Z" />
<glyph unicode="]" horiz-adv-x="847" d="M567 -424H130V-210H353V1580H130V1794H567V-424Z" />
<glyph unicode="^" horiz-adv-x="1361" d="M211 990L690 1471L1172 991L1023 842L690 1183L360 841L211 990Z" />
<glyph unicode="_" horiz-adv-x="1320" d="M0 -244V-55H1320V-244H0Z" />
<glyph unicode="`" horiz-adv-x="1077" d="M480 1595L326 1965H509L663 1595H480Z" />
<glyph unicode="a" horiz-adv-x="1152" d="M442 -30Q325 -30 244 14T122 133T80 296Q80 374 106 436T186 544T326 619Q391 640 478 657T668 688T883 720L797 671Q798 783 747 836T575 889Q502 889 434 855T339 738L119 807Q159 944 271 1027T575 1110Q719 1110
828 1063T991 909Q1020 852 1026 793T1032 663V0H821V234L856 196Q783 79 686 25T442 -30ZM490 162Q572 162 630 191T722 262T769 341Q788 387 790 446T793 543L867 521Q758 504 680 491T546 467T447 441Q405 426 376 406T332 360T316 299Q316 259 336 229T394
180T490 162Z" />
<glyph unicode="b" horiz-adv-x="1232" d="M659 -30Q501 -30 394 45T233 249T179 540Q179 703 233 832T391 1035T650 1110Q803 1110 915 1036T1090 833T1152 540Q1152 378 1091 249T919 45T659 -30ZM138 0V1440H381V758H351V0H138ZM622 186Q716 186 777 233T867
360T897 540Q897 638 867 718T774 846T614 894Q522 894 464 850T379 726T351 540Q351 435 378 355T465 231T622 186Z" />
<glyph unicode="c" horiz-adv-x="1151" d="M609 -30Q442 -30 324 44T144 248T80 540Q81 706 145 834T329 1036T612 1110Q796 1110 923 1018T1090 765L850 700Q822 787 757 835T609 884Q515 884 454 840T364 717T335 540Q335 386 404 291T609 196Q705 196 760 240T844
367L1090 312Q1040 147 915 59T609 -30Z" />
<glyph unicode="d" horiz-adv-x="1234" d="M573 -30Q424 -30 313 45T141 249T80 540Q80 704 141 832T316 1035T582 1110Q736 1110 840 1036T999 832T1053 540Q1053 379 999 250T838 45T573 -30ZM610 186Q707 186 766 230T853 355T881 540Q881 646 854 725T768
849T618 894Q521 894 458 847T365 719T335 540Q335 441 364 361T455 233T610 186ZM881 0V758H851V1440H1094V0H881Z" />
<glyph unicode="e" horiz-adv-x="1204" d="M631 -30Q467 -30 343 41T150 238T80 528Q80 705 148 835T337 1038T617 1110Q785 1110 902 1032T1077 810T1120 473H881V561Q880 737 819 818T627 899Q479 899 407 808T335 540Q335 376 407 286T617 196Q706 196 770
235T870 350L1108 278Q1046 132 917 51T631 -30ZM259 473V655H1002V473H259Z" />
<glyph unicode="f" horiz-adv-x="756" d="M234 0V1097Q234 1138 237 1187T254 1286T305 1375Q351 1426 404 1445T510 1467T601 1470H736V1274H611Q542 1274 509 1240T475 1149V0H234ZM60 891V1080H736V891H60Z" />
<glyph unicode="g" horiz-adv-x="1232" d="M594 -510Q504 -510 422 -482T273 -402T165 -275L387 -165Q418 -224 474 -252T595 -281Q670 -281 729 -255T820 -177T851 -48V259H881V1080H1092V-52Q1092 -93 1089 -130T1077 -204Q1053 -309 985 -376T817 -477T594
-510ZM573 -30Q424 -30 313 45T141 249T80 540Q80 704 141 832T316 1035T582 1110Q736 1110 840 1036T999 832T1053 540Q1053 379 999 250T838 45T573 -30ZM610 186Q707 186 766 230T853 355T881 540Q881 646 854 725T768 849T618 894Q521 894 458 847T365 719T335
540Q335 441 364 361T455 233T610 186Z" />
<glyph unicode="h" horiz-adv-x="1251" d="M887 0V520Q887 571 880 633T848 752T772 847T635 884Q589 884 544 869T463 818T404 718T382 555L239 616Q239 754 292 866T450 1044T706 1111Q826 1111 904 1071T1028 969T1096 837T1124 705T1131 603V0H887ZM138 0V1440H353V682H382V0H138Z"
/>
<glyph unicode="i" horiz-adv-x="561" d="M160 1244V1465H401V1244H160ZM160 0V1080H401V0H160Z" />
<glyph unicode="j" horiz-adv-x="577" d="M-20 -480V-254H31Q119 -254 156 -213T193 -92V1080H433V-200Q433 -331 357 -405T144 -480H-20ZM193 1244V1465H433V1244H193Z" />
<glyph unicode="k" horiz-adv-x="1076" d="M138 0L140 1440H384V560L779 1080H1080L661 540L1116 0H797L384 520V0H138Z" />
<glyph unicode="l" horiz-adv-x="561" d="M160 0V1470H401V0H160Z" />
<glyph unicode="m" horiz-adv-x="1798" d="M1437 0V656Q1437 767 1382 829T1233 892Q1175 892 1129 866T1056 788T1029 665L922 728Q921 840 972 925T1112 1059T1308 1107Q1487 1107 1582 1000T1678 717V0H1437ZM138 0V1080H351V745H381V0H138ZM789 0V653Q789
766 734 829T584 892Q492 892 437 829T381 665L273 737Q273 842 325 926T465 1058T664 1107Q785 1107 866 1056T988 916T1029 716V0H789Z" />
<glyph unicode="n" horiz-adv-x="1251" d="M887 0V520Q887 571 880 633T848 752T772 847T635 884Q589 884 544 869T463 818T404 718T382 555L239 616Q239 754 292 866T450 1044T706 1111Q826 1111 904 1071T1028 969T1096 837T1124 705T1131 603V0H887ZM138 0V1080H353V745H382V0H138Z"
/>
<glyph unicode="o" horiz-adv-x="1236" d="M617 -30Q455 -30 334 43T147 244T80 540Q80 710 148 838T337 1038T617 1110Q780 1110 901 1037T1089 836T1156 540Q1156 372 1089 244T900 43T617 -30ZM617 196Q761 196 831 292T901 540Q901 697 830 790T617 884Q520
884 458 841T365 720T335 540Q335 383 406 290T617 196Z" />
<glyph unicode="p" horiz-adv-x="1232" d="M659 -30Q501 -30 394 45T233 249T179 540Q179 703 233 832T391 1035T650 1110Q803 1110 915 1036T1090 833T1152 540Q1152 378 1091 249T919 45T659 -30ZM138 -480V1080H351V322H381V-480H138ZM622 186Q716 186 777
233T867 360T897 540Q897 638 867 718T774 846T614 894Q522 894 464 850T379 726T351 540Q351 435 378 355T465 231T622 186Z" />
<glyph unicode="q" horiz-adv-x="1234" d="M573 -30Q424 -30 313 45T141 249T80 540Q80 704 141 832T316 1035T582 1110Q736 1110 840 1036T999 832T1053 540Q1053 379 999 250T838 45T573 -30ZM610 186Q707 186 766 230T853 355T881 540Q881 646 854 725T768
849T618 894Q521 894 458 847T365 719T335 540Q335 441 364 361T455 233T610 186ZM851 -480V322H881V1080H1094V-480H851Z" />
<glyph unicode="r" horiz-adv-x="798" d="M140 0V1080H353V817L327 851Q347 905 380 949T461 1023Q501 1050 549 1065T649 1084T748 1080V855Q700 869 638 864T525 829Q475 802 444 760T397 665T382 549V0H140Z" />
<glyph unicode="s" horiz-adv-x="1083" d="M557 -30Q357 -30 232 60T80 313L326 351Q345 271 410 225T574 179Q661 179 708 213T756 308Q756 345 739 367T662 411T481 464Q345 500 265 541T150 640T115 778Q115 879 168 954T316 1069T540 1110Q666 1110 763 1071T921
960T995 791L749 747Q740 816 687 856T544 901Q459 906 407 876T355 790Q355 759 376 737T460 693T650 639Q779 606 856 564T968 462T1003 319Q1003 156 885 63T557 -30Z" />
<glyph unicode="t" horiz-adv-x="866" d="M773 0Q666 -20 564 -18T380 20T257 133Q220 203 218 276T216 441V1380H456V455Q456 390 457 341T478 261Q514 201 593 194T773 202V0ZM20 891V1080H773V891H20Z" />
<glyph unicode="u" horiz-adv-x="1251" d="M545 -31Q425 -31 347 9T223 111T155 243T127 375T120 477V1080H364V560Q364 510 371 448T403 328T479 233T616 196Q662 196 707 211T788 262T847 363T869 525L1012 464Q1012 326 959 214T801 36T545 -31ZM898 0V335H869V1080H1111V0H898Z"
/>
<glyph unicode="v" horiz-adv-x="1106" d="M432 0L40 1080H281L553 297L824 1080H1066L674 0H432Z" />
<glyph unicode="w" horiz-adv-x="1605" d="M370 0L40 1082L276 1080L487 387L701 1080H904L1117 387L1329 1080H1565L1235 0H1047L802 743L558 0H370Z" />
<glyph unicode="x" horiz-adv-x="1108" d="M20 0L415 546L28 1080H312L555 735L794 1080H1078L691 546L1088 0H804L555 357L304 0H20Z" />
<glyph unicode="y" horiz-adv-x="1119" d="M282 -480L490 91L494 -77L23 1080H274L608 224H544L869 1080H1110L508 -480H282Z" />
<glyph unicode="z" horiz-adv-x="1067" d="M40 0V33L612 869H98V1080H987V1046L417 211H963V0H40Z" />
<glyph unicode="{" horiz-adv-x="898" d="M680 -424Q551 -424 476 -349T400 -144V457Q400 479 388 495L299 621Q280 650 280 685T299 749L388 875Q400 895 400 913V1514Q400 1643 475 1718T680 1794H816V1567H697Q668 1567 648 1547T627 1497V913Q627 820 573
743L530 685L573 627Q627 549 627 457V-128Q627 -157 647 -177T697 -198H816V-424H680Z" />
<glyph unicode="|" horiz-adv-x="601" d="M180 0V1440H421V0H180Z" />
<glyph unicode="}" horiz-adv-x="898" d="M218 -424H82V-198H201Q230 -198 250 -178T271 -128V457Q271 549 325 627L368 685L325 743Q271 820 271 913V1497Q271 1526 251 1546T201 1567H82V1794H218Q347 1794 422 1719T498 1514V913Q498 895 510 875L599 749Q619
720 619 685T599 621L510 495Q498 479 498 457V-144Q498 -274 423 -349T218 -424Z" />
<glyph unicode="~" horiz-adv-x="1432" d="M950 409Q884 409 823 438T706 507T601 576T511 606Q465 606 449 560T451 446H237Q209 560 227 651T308 797T480 852Q547 852 608 823T726 754T830 685T921 655Q965 655 982 701T981 815H1195Q1222 702 1205 611T1124
464T950 409Z" />
<glyph unicode="&#xa0;" horiz-adv-x="400" />
<glyph unicode="&#xa1;" horiz-adv-x="721" d="M240 1080H481V859H240V1080ZM240 720H481V-360H240V720Z" />
<glyph unicode="&#xa2;" horiz-adv-x="1151" d="M526 -58V125Q384 144 285 221T133 419T80 690Q81 840 134 960T287 1157T526 1253V1440H715V1251Q859 1227 958 1140T1090 915L850 850Q822 937 757 985T609 1034Q515 1034 454 990T364 867T335 690Q335 536 404
441T609 346Q705 346 760 390T844 517L1090 462Q1047 322 951 238T715 129V-58H526Z" />
<glyph unicode="&#xa3;" horiz-adv-x="1142" d="M77 0V226H104Q165 226 208 271T252 375V1085Q252 1195 306 1282T453 1420T660 1470Q764 1470 841 1424T973 1295T1065 1105L849 1034Q820 1132 776 1187T659 1243Q586 1243 542 1196T497 1073L496 226H971V0H77ZM77
609V836H800V609H77Z" />
<glyph unicode="&#xa4;" horiz-adv-x="1341" d="M670 196Q562 196 467 237T300 350T187 518T146 722Q146 830 187 925T300 1092T467 1205T670 1246Q779 1246 874 1205T1041 1092T1155 925T1196 722Q1196 613 1155 518T1042 351T874 237T670 196ZM220 110L60 270L304
514L465 354L220 110ZM304 925L60 1169L220 1330L464 1086L304 925ZM1121 110L877 354L1037 514L1281 270L1121 110ZM670 400Q759 400 831 444T947 560T991 720Q991 809 947 881T830 997T670 1040Q582 1040 510 997T394 881T350 720Q350 633 393 561T509 444T670
400ZM1038 926L877 1086L1121 1330L1281 1169L1038 926Z" />
<glyph unicode="&#xa5;" horiz-adv-x="1223" d="M202 524V713H1022V524H202ZM202 197V386H1022V197H202ZM490 0V590L0 1440H281L612 866L942 1440H1223L734 590V0H490Z" />
<glyph unicode="&#xa6;" horiz-adv-x="601" d="M180 625V1440H421V625H180ZM180 -408V407H421V-408H180Z" />
<glyph unicode="&#xa7;" horiz-adv-x="1083" d="M557 -280Q444 -280 349 -244T189 -131T103 63L349 101Q362 43 396 5T476 -52T572 -71Q614 -71 651 -57T712 -15T736 58Q736 101 710 125T623 169T461 214Q341 245 260 284T137 378T95 511Q95 611 154 673T302 763T484
789L504 691Q423 666 379 632T335 545Q335 499 370 475T472 432T630 389Q745 358 824 320T943 223T983 73Q983 -42 927 -120T775 -239T557 -280ZM611 267L604 363Q642 371 678 392T736 447T759 525Q759 568 733 592T647 636T484 681Q365 712 284 750T161 847T119
995Q119 1109 178 1182T328 1291T518 1327Q619 1327 710 1290T862 1182T938 1008L692 964Q683 1018 659 1052T596 1102T509 1119Q468 1119 434 1107T379 1071T358 1012Q358 965 395 940T499 898T653 856Q768 824 846 787T965 692T1006 546Q1006 446 958 380T821
284T611 267Z" />
<glyph unicode="&#xa8;" horiz-adv-x="1113" d="M653 1607V1827H873V1607H653ZM240 1607V1827H460V1607H240Z" />
<glyph unicode="&#xa9;" horiz-adv-x="1773" d="M886 -118Q715 -118 565 -54T302 123T124 387T60 708Q60 879 124 1029T302 1292T565 1470T886 1534Q1058 1534 1207 1470T1470 1293T1648 1030T1713 708Q1713 537 1649 387T1471 124T1208 -54T886 -118ZM902 282Q802
282 730 313T602 415Q550 481 527 554T504 709Q504 793 528 866T602 1000Q657 1068 731 1101T911 1135Q967 1135 1014 1124T1112 1082Q1166 1049 1206 997T1262 875L1078 825Q1070 853 1054 878T1012 925Q988 945 960 954T901 963Q852 963 815 944T749 890Q720
853 710 806T699 709Q699 659 710 613T749 529Q775 493 813 474T904 455Q976 455 1015 490Q1038 511 1051 532T1074 581L1262 541Q1244 483 1211 434T1131 349Q1086 316 1032 299T902 282ZM886 108Q1011 108 1119 154T1310 283T1439 475T1486 708Q1486 833 1440
941T1311 1132T1120 1261T886 1308Q762 1308 653 1262T462 1133T333 942T286 708Q286 584 332 475T461 284T653 155T886 108Z" />
<glyph unicode="&#xaa;" horiz-adv-x="640" d="M261 540Q173 540 127 588T80 703Q80 761 108 802T201 866Q247 882 319 893T480 917L434 888Q435 942 411 967T329 993Q295 993 262 977T216 922L99 959Q119 1027 176 1068T329 1110Q400 1110 455 1088T538 1011Q553
982 556 952T560 886V555H447V669L464 647Q426 591 379 566T261 540ZM287 642Q346 642 378 671T419 722Q430 745 431 775T432 823L471 812Q385 798 341 790T266 772Q236 760 221 744T206 705Q206 676 227 659T287 642Z" />
<glyph unicode="&#xab;" horiz-adv-x="1172" d="M920 97L568 540L920 983L1049 882L777 540L1049 198L920 97ZM512 97L160 540L512 983L641 882L368 540L641 198L512 97Z" />
<glyph unicode="&#xac;" horiz-adv-x="1200" d="M891 372V606H120V795H1080V372H891Z" />
<glyph unicode="&#xad;" horiz-adv-x="840" d="M120 536V725H720V536H120Z" />
<glyph unicode="&#xae;" horiz-adv-x="1310" d="M654 546Q548 546 455 586T291 697T180 861T140 1062Q140 1168 180 1261T291 1424T455 1535T654 1576Q761 1576 854 1536T1018 1425T1130 1261T1170 1062Q1170 955 1130 862T1019 697T854 586T654 546ZM656 706Q753
706 833 754T962 884T1011 1062Q1011 1160 963 1240T834 1369T656 1417Q557 1417 477 1369T349 1241T301 1062Q301 965 348 884T476 755T656 706ZM489 826V1299H690Q764 1299 806 1256T851 1143Q851 1100 831 1064T768 1004L856 826H758L679 988H576V826H489ZM576
1069H693Q723 1069 742 1090T762 1143Q762 1178 744 1197T693 1216H576V1069Z" />
<glyph unicode="&#xaf;" horiz-adv-x="1013" d="M240 1680V1867H773V1680H240Z" />
<glyph unicode="&#xb0;" horiz-adv-x="900" d="M420 750Q321 750 239 798T109 928T60 1110Q60 1208 110 1290T242 1421T420 1470Q519 1470 600 1422T731 1292T780 1110Q780 1010 731 929T601 799T420 750ZM420 956Q462 956 497 977T553 1033T574 1110Q574 1152
553 1187T497 1243T420 1264Q378 1264 343 1243T287 1187T266 1110Q266 1068 287 1033T343 977T420 956Z" />
<glyph unicode="&#xb1;" horiz-adv-x="1200" d="M506 440V666H120V855H506V1080H695V855H1080V666H695V440H506ZM120 129V318H1080V129H120Z" />
<glyph unicode="&#xb2;" horiz-adv-x="824" d="M100 540V676L484 1018Q528 1058 545 1093T563 1159Q563 1226 523 1270T416 1314Q370 1314 335 1293T280 1237T262 1161H101Q101 1252 141 1319T253 1423T419 1460Q506 1460 575 1422T684 1315T724 1157Q724 1092
706 1049T653 968T565 886L295 645L279 687H724V540H100Z" />
<glyph unicode="&#xb3;" horiz-adv-x="808" d="M378 518Q276 518 193 577T80 736L231 777Q247 722 288 694T378 667Q443 667 486 711T529 819Q529 884 487 928T377 972Q357 972 338 967T301 952L229 1074L533 1334L549 1292H116V1440H674V1292L430 1058L428 1107Q510
1100 568 1060T657 956T688 819Q688 732 646 664T533 557T378 518Z" />
<glyph unicode="&#xb4;" horiz-adv-x="1077" d="M597 1595H414L568 1965H751L597 1595Z" />
<glyph unicode="&#xb5;" horiz-adv-x="1269" d="M138 -480V1080H382V560Q382 510 389 448T422 328T497 233T635 196Q680 196 725 211T806 262T865 363T887 525V1080H1129V0H916V122Q858 50 769 10T563 -31Q498 -31 445 -16T351 28V-480H138Z" />
<glyph unicode="&#xb6;" horiz-adv-x="1430" d="M673 -282V503H579Q570 503 537 504T463 511Q341 529 260 593T138 755T97 971Q97 1089 136 1186T257 1349T463 1432Q503 1438 536 1439T579 1440H914V-282H673ZM1093 -282V1440H1334V-282H1093Z" />
<glyph unicode="&#xb7;" horiz-adv-x="533" d="M270 483Q207 483 164 525T120 630Q120 693 163 735T270 777Q328 777 370 735T413 630Q413 567 371 525T270 483Z" />
<glyph unicode="&#xb8;" horiz-adv-x="827" d="M378 -483Q338 -483 304 -473T240 -447L293 -304Q334 -318 357 -318Q387 -318 403 -301T420 -264Q420 -225 381 -207T289 -174L360 31L506 32L466 -84Q524 -112 556 -158T588 -269Q588 -364 526 -423T378 -483Z" />
<glyph unicode="&#xb9;" horiz-adv-x="688" d="M289 540V1271L120 1167V1339L289 1440H448V540H289Z" />
<glyph unicode="&#xba;" horiz-adv-x="703" d="M351 540Q229 540 155 620T80 825Q80 952 155 1031T351 1110Q473 1110 548 1030T623 825Q623 699 548 620T351 540ZM350 660Q419 660 453 706T487 825Q487 900 453 945T351 990Q281 990 249 945T216 825Q216 749
250 705T350 660Z" />
<glyph unicode="&#xbb;" horiz-adv-x="1172" d="M252 97L123 198L396 540L123 882L252 983L604 540L252 97ZM660 97L532 198L804 540L532 882L660 983L1012 540L660 97Z" />
<glyph unicode="&#xbc;" horiz-adv-x="2071" d="M289 540V1271L120 1167V1339L289 1440H448V540H289ZM1590 0V146H1193V293L1480 900H1659L1371 293H1590V524H1747V293H1831V146H1747V0H1590ZM523 0L383 105L1368 1452L1509 1345L523 0Z" />
<glyph unicode="&#xbd;" horiz-adv-x="2028" d="M289 540V1271L120 1167V1339L289 1440H448V540H289ZM1304 0V136L1687 478Q1731 518 1749 553T1767 619Q1767 686 1727 730T1620 774Q1574 774 1539 753T1484 697T1465 621H1305Q1305 712 1345 779T1457 883T1623
920Q1710 920 1779 882T1888 775T1928 617Q1928 552 1910 509T1857 428T1769 346L1499 105L1483 147H1928V0H1304ZM523 0L383 105L1368 1452L1509 1345L523 0Z" />
<glyph unicode="&#xbe;" horiz-adv-x="2056" d="M378 518Q276 518 193 577T80 736L231 777Q247 722 288 694T378 667Q443 667 486 711T529 819Q529 884 487 928T377 972Q357 972 338 967T301 952L229 1074L533 1334L549 1292H116V1440H674V1292L430 1058L428 1107Q510
1100 568 1060T657 956T688 819Q688 732 646 664T533 557T378 518ZM1695 0V146H1298V293L1585 900H1764L1476 293H1695V524H1852V293H1936V146H1852V0H1695ZM644 0L503 105L1489 1452L1629 1345L644 0Z" />
<glyph unicode="&#xbf;" horiz-adv-x="1106" d="M705 689Q705 620 692 556T647 436Q621 383 588 352T514 289T422 204Q383 159 369 115T355 19Q355 -14 362 -42T387 -93Q415 -130 459 -145T553 -161Q595 -161 633 -151T696 -118Q726 -94 740 -59T752 18H1006Q996
-81 952 -167T834 -304Q777 -345 706 -366T562 -388Q452 -388 355 -354T192 -242Q148 -191 124 -124T100 12Q100 115 144 200T257 357Q289 391 318 417T371 467T413 519Q441 566 445 599T450 689H705ZM704 1080V815H450V1080H704Z" />
<glyph unicode="&#xc0;" horiz-adv-x="1341" d="M555 1595L400 1965H583L738 1595H555ZM1301 0H1053L647 1292H700L288 0H40L494 1440H847L1301 0ZM1048 312H292V537H1048V312Z" />
<glyph unicode="&#xc1;" horiz-adv-x="1341" d="M787 1595H604L758 1965H941L787 1595ZM40 0L494 1440H847L1301 0H1053L641 1292H695L288 0H40ZM293 312V537H1049V312H293Z" />
<glyph unicode="&#xc2;" horiz-adv-x="1341" d="M294 1595L567 1910H769L1043 1595H818L668 1773L519 1595H294ZM40 0L494 1440H847L1301 0H1053L641 1292H695L288 0H40ZM293 312V537H1049V312H293Z" />
<glyph unicode="&#xc3;" horiz-adv-x="1341" d="M838 1650Q791 1650 748 1671T664 1719T590 1768T526 1789Q494 1789 483 1757T484 1677H332Q303 1797 345 1880T505 1964Q552 1964 595 1943T678 1895T753 1846T817 1825Q848 1825 860 1857T859 1938H1011Q1041
1819 998 1735T838 1650ZM40 0L494 1440H847L1301 0H1053L641 1292H695L288 0H40ZM293 312V537H1049V312H293Z" />
<glyph unicode="&#xc4;" horiz-adv-x="1341" d="M768 1607V1827H988V1607H768ZM355 1607V1827H575V1607H355ZM40 0L494 1440H847L1301 0H1053L641 1292H695L288 0H40ZM293 312V537H1049V312H293Z" />
<glyph unicode="&#xc5;" horiz-adv-x="1341" d="M671 1552Q601 1552 543 1586T449 1679T414 1809Q414 1880 449 1938T542 2031T671 2066Q743 2066 801 2032T894 1939T929 1809Q929 1738 894 1680T801 1587T671 1552ZM672 1699Q718 1699 750 1731T782 1809Q782
1855 750 1887T672 1919Q627 1919 595 1887T562 1809Q562 1764 594 1732T672 1699ZM40 0L494 1440H847L1301 0H1053L641 1292H695L288 0H40ZM293 312V537H1049V312H293Z" />
<glyph unicode="&#xc6;" horiz-adv-x="1877" d="M40 0L494 1440H928V1214H587L694 1293L288 0H40ZM293 312V537H1033V312H293ZM847 0V1440H1777V1214H1087V859H1657V633H1087V226H1777V0H847Z" />
<glyph unicode="&#xc7;" horiz-adv-x="1477" d="M728 -483Q687 -483 653 -473T589 -447L642 -304Q683 -318 707 -318Q737 -318 753 -301T769 -264Q769 -225 730 -207T638 -174L709 31L855 32L815 -84Q873 -112 905 -158T937 -269Q937 -364 875 -423T728 -483ZM749
-30Q533 -30 379 64T143 328T60 720Q60 943 142 1112T379 1375T749 1470Q998 1470 1164 1346T1397 1010L1154 943Q1112 1084 1011 1163T749 1243Q604 1243 508 1178T363 996T313 720Q313 562 361 445T507 262T749 197Q910 197 1011 277T1154 497L1397 430Q1330
219 1164 95T749 -30Z" />
<glyph unicode="&#xc8;" horiz-adv-x="1170" d="M534 1595L380 1965H563L717 1595H534ZM140 0V1440H1070V1214H381V859H950V633H381V226H1070V0H140Z" />
<glyph unicode="&#xc9;" horiz-adv-x="1170" d="M723 1595H541L695 1965H878L723 1595ZM140 0V1440H1070V1214H381V859H950V633H381V226H1070V0H140Z" />
<glyph unicode="&#xca;" horiz-adv-x="1170" d="M217 1595L491 1910H693L966 1595H741L592 1773L442 1595H217ZM140 0V1440H1070V1214H381V859H950V633H381V226H1070V0H140Z" />
<glyph unicode="&#xcb;" horiz-adv-x="1170" d="M695 1607V1827H915V1607H695ZM282 1607V1827H502V1607H282ZM140 0V1440H1070V1214H381V859H950V633H381V226H1070V0H140Z" />
<glyph unicode="&#xcc;" horiz-adv-x="561" d="M185 1595L31 1965H214L368 1595H185ZM160 0V1440H401V0H160Z" />
<glyph unicode="&#xcd;" horiz-adv-x="561" d="M375 1595H192L347 1965H530L375 1595ZM160 0V1440H401V0H160Z" />
<glyph unicode="&#xce;" horiz-adv-x="561" d="M-97 1595L176 1910H378L651 1595H426L277 1773L128 1595H-97ZM160 0V1440H401V0H160Z" />
<glyph unicode="&#xcf;" horiz-adv-x="561" d="M377 1607V1827H597V1607H377ZM-36 1607V1827H184V1607H-36ZM160 0V1440H401V0H160Z" />
<glyph unicode="&#xd0;" horiz-adv-x="1404" d="M20 626V815H695V626H20ZM143 0V1440H602Q620 1440 673 1439T777 1432Q948 1410 1066 1311T1246 1057T1307 720Q1307 537 1246 383T1067 130T777 8Q728 2 674 1T602 0H143ZM388 227H602Q632 227 678 229T761 238Q863
257 927 329T1021 504T1052 720Q1052 837 1021 940T926 1113T761 1202Q725 1210 679 1211T602 1213H388V227Z" />
<glyph unicode="&#xd1;" horiz-adv-x="1436" d="M907 1600Q859 1600 816 1621T733 1669T659 1718T595 1739Q562 1739 551 1707T552 1627H400Q372 1747 414 1830T573 1914Q621 1914 664 1893T747 1845T821 1796T886 1775Q917 1775 929 1807T928 1888H1080Q1110
1769 1067 1685T907 1600ZM140 0V1440H384L1052 425V1440H1296V0H1052L384 1015V0H140Z" />
<glyph unicode="&#xd2;" horiz-adv-x="1499" d="M636 1595L482 1965H664L819 1595H636ZM749 -30Q533 -30 379 64T143 328T60 720Q60 943 142 1112T379 1375T749 1470Q965 1470 1119 1376T1356 1112T1439 720Q1439 497 1357 328T1120 65T749 -30ZM749 197Q894 196
990 261T1135 444T1184 720Q1184 878 1136 994T991 1176T749 1243Q604 1244 508 1179T364 996T315 720Q315 562 363 446T507 264T749 197Z" />
<glyph unicode="&#xd3;" horiz-adv-x="1499" d="M851 1595H668L822 1965H1005L851 1595ZM749 -30Q533 -30 379 64T143 328T60 720Q60 943 142 1112T379 1375T749 1470Q965 1470 1119 1376T1356 1112T1439 720Q1439 497 1357 328T1120 65T749 -30ZM749 197Q894
196 990 261T1135 444T1184 720Q1184 878 1136 994T991 1176T749 1243Q604 1244 508 1179T364 996T315 720Q315 562 363 446T507 264T749 197Z" />
<glyph unicode="&#xd4;" horiz-adv-x="1499" d="M372 1595L645 1910H847L1120 1595H895L746 1773L597 1595H372ZM749 -30Q533 -30 379 64T143 328T60 720Q60 943 142 1112T379 1375T749 1470Q965 1470 1119 1376T1356 1112T1439 720Q1439 497 1357 328T1120 65T749
-30ZM749 197Q894 196 990 261T1135 444T1184 720Q1184 878 1136 994T991 1176T749 1243Q604 1244 508 1179T364 996T315 720Q315 562 363 446T507 264T749 197Z" />
<glyph unicode="&#xd5;" horiz-adv-x="1499" d="M749 -30Q533 -30 379 64T143 328T60 720Q60 943 142 1112T379 1375T749 1470Q965 1470 1119 1376T1356 1112T1439 720Q1439 497 1357 328T1120 65T749 -30ZM749 197Q894 196 990 261T1135 444T1184 720Q1184 878
1136 994T991 1176T749 1243Q604 1244 508 1179T364 996T315 720Q315 562 363 446T507 264T749 197ZM929 1600Q882 1600 839 1621T755 1669T681 1718T617 1739Q585 1739 574 1707T575 1627H423Q394 1747 436 1830T596 1914Q643 1914 686 1893T769 1845T844 1796T908
1775Q939 1775 951 1807T950 1888H1102Q1132 1769 1089 1685T929 1600Z" />
<glyph unicode="&#xd6;" horiz-adv-x="1499" d="M846 1607V1827H1066V1607H846ZM433 1607V1827H653V1607H433ZM749 -30Q533 -30 379 64T143 328T60 720Q60 943 142 1112T379 1375T749 1470Q965 1470 1119 1376T1356 1112T1439 720Q1439 497 1357 328T1120 65T749
-30ZM749 197Q894 196 990 261T1135 444T1184 720Q1184 878 1136 994T991 1176T749 1243Q604 1244 508 1179T364 996T315 720Q315 562 363 446T507 264T749 197Z" />
<glyph unicode="&#xd7;" horiz-adv-x="1013" d="M760 334L507 588L253 334L120 468L373 721L121 973L255 1106L507 855L759 1106L892 973L640 721L893 468L760 334Z" />
<glyph unicode="&#xd8;" horiz-adv-x="1499" d="M250 -26L80 125L245 311L277 340L1077 1234L1090 1255L1278 1465L1448 1312L1243 1083L1219 1066L418 169L402 144L250 -26ZM749 -30Q533 -30 379 64T143 328T60 720Q60 943 142 1112T379 1375T749 1470Q965 1470
1119 1376T1356 1112T1439 720Q1439 497 1357 328T1120 65T749 -30ZM749 197Q894 196 990 261T1135 444T1184 720Q1184 878 1136 994T991 1176T749 1243Q604 1244 508 1179T364 996T315 720Q315 562 363 446T507 264T749 197Z" />
<glyph unicode="&#xd9;" horiz-adv-x="1440" d="M647 1595L492 1965H675L829 1595H647ZM720 -30Q548 -30 418 40T214 237T140 535V1438L384 1440V541Q384 460 411 396T486 288T594 220T720 197Q787 197 847 220T955 288T1029 397T1056 541V1440H1300V535Q1300
364 1227 237T1023 40T720 -30Z" />
<glyph unicode="&#xda;" horiz-adv-x="1440" d="M806 1595H623L777 1965H960L806 1595ZM720 -30Q548 -30 418 40T214 237T140 535V1438L384 1440V541Q384 460 411 396T486 288T594 220T720 197Q787 197 847 220T955 288T1029 397T1056 541V1440H1300V535Q1300
364 1227 237T1023 40T720 -30Z" />
<glyph unicode="&#xdb;" horiz-adv-x="1440" d="M342 1595L616 1910H818L1091 1595H866L717 1773L567 1595H342ZM720 -30Q548 -30 418 40T214 237T140 535V1438L384 1440V541Q384 460 411 396T486 288T594 220T720 197Q787 197 847 220T955 288T1029 397T1056
541V1440H1300V535Q1300 364 1227 237T1023 40T720 -30Z" />
<glyph unicode="&#xdc;" horiz-adv-x="1440" d="M817 1607V1827H1037V1607H817ZM403 1607V1827H623V1607H403ZM720 -30Q548 -30 418 40T214 237T140 535V1438L384 1440V541Q384 460 411 396T486 288T594 220T720 197Q787 197 847 220T955 288T1029 397T1056 541V1440H1300V535Q1300
364 1227 237T1023 40T720 -30Z" />
<glyph unicode="&#xdd;" horiz-adv-x="1223" d="M697 1595H514L669 1965H852L697 1595ZM490 0V590L0 1440H281L612 866L942 1440H1223L734 590V0H490Z" />
<glyph unicode="&#xde;" horiz-adv-x="1260" d="M140 0V1440H384V1189H727Q801 1189 874 1165Q940 1144 998 1104T1098 1007Q1146 947 1172 872T1200 720Q1202 644 1175 570T1101 437Q1039 353 940 303T727 253H384V0H140ZM384 479H725Q771 479 821 503T905 573Q929
605 943 642T955 720Q954 764 939 806T894 880Q863 915 817 938T725 961H384V479Z" />
<glyph unicode="&#xdf;" horiz-adv-x="1268" d="M689 -30Q626 -30 583 -23T503 0V236Q533 225 570 216T655 206Q769 206 838 261T907 427Q907 546 818 601T585 658V869Q648 873 693 896T763 961T788 1060Q788 1148 727 1196T584 1244Q528 1244 481 1222T407 1145Q394
1119 388 1079T382 995V0H138V1061Q138 1102 142 1135T157 1199Q187 1295 251 1354T401 1442T583 1470Q709 1470 810 1418T971 1275T1031 1065Q1031 982 1002 912T910 796Q962 777 1005 743T1080 660T1130 552T1148 424Q1148 213 1030 92T689 -30Z" />
<glyph unicode="&#xe0;" horiz-adv-x="1152" d="M498 1235L343 1605H526L681 1235H498ZM442 -30Q325 -30 244 14T122 133T80 296Q80 374 106 436T186 544T326 619Q391 640 478 657T668 688T883 720L797 671Q798 783 747 836T575 889Q502 889 434 855T339 738L119
807Q159 944 271 1027T575 1110Q719 1110 828 1063T991 909Q1020 852 1026 793T1032 663V0H821V234L856 196Q783 79 686 25T442 -30ZM490 162Q572 162 630 191T722 262T769 341Q788 387 790 446T793 543L867 521Q758 504 680 491T546 467T447 441Q405 426 376 406T332
360T316 299Q316 259 336 229T394 180T490 162Z" />
<glyph unicode="&#xe1;" horiz-adv-x="1152" d="M686 1235H503L658 1605H841L686 1235ZM442 -30Q325 -30 244 14T122 133T80 296Q80 374 106 436T186 544T326 619Q391 640 478 657T668 688T883 720L797 671Q798 783 747 836T575 889Q502 889 434 855T339 738L119
807Q159 944 271 1027T575 1110Q719 1110 828 1063T991 909Q1020 852 1026 793T1032 663V0H821V234L856 196Q783 79 686 25T442 -30ZM490 162Q572 162 630 191T722 262T769 341Q788 387 790 446T793 543L867 521Q758 504 680 491T546 467T447 441Q405 426 376 406T332
360T316 299Q316 259 336 229T394 180T490 162Z" />
<glyph unicode="&#xe2;" horiz-adv-x="1152" d="M215 1235L489 1550H691L964 1235H739L590 1413L440 1235H215ZM442 -30Q325 -30 244 14T122 133T80 296Q80 374 106 436T186 544T326 619Q391 640 478 657T668 688T883 720L797 671Q798 783 747 836T575 889Q502
889 434 855T339 738L119 807Q159 944 271 1027T575 1110Q719 1110 828 1063T991 909Q1020 852 1026 793T1032 663V0H821V234L856 196Q783 79 686 25T442 -30ZM490 162Q572 162 630 191T722 262T769 341Q788 387 790 446T793 543L867 521Q758 504 680 491T546 467T447
441Q405 426 376 406T332 360T316 299Q316 259 336 229T394 180T490 162Z" />
<glyph unicode="&#xe3;" horiz-adv-x="1152" d="M775 1240Q728 1240 685 1261T602 1309T527 1358T463 1379Q431 1379 420 1347T421 1267H269Q240 1387 283 1470T442 1554Q489 1554 532 1533T616 1485T690 1436T754 1415Q786 1415 798 1447T797 1528H949Q978 1409
935 1325T775 1240ZM442 -30Q325 -30 244 14T122 133T80 296Q80 374 106 436T186 544T326 619Q391 640 478 657T668 688T883 720L797 671Q798 783 747 836T575 889Q502 889 434 855T339 738L119 807Q159 944 271 1027T575 1110Q719 1110 828 1063T991 909Q1020
852 1026 793T1032 663V0H821V234L856 196Q783 79 686 25T442 -30ZM490 162Q572 162 630 191T722 262T769 341Q788 387 790 446T793 543L867 521Q758 504 680 491T546 467T447 441Q405 426 376 406T332 360T316 299Q316 259 336 229T394 180T490 162Z" />
<glyph unicode="&#xe4;" horiz-adv-x="1152" d="M691 1247V1467H911V1247H691ZM278 1247V1467H498V1247H278ZM442 -30Q325 -30 244 14T122 133T80 296Q80 374 106 436T186 544T326 619Q391 640 478 657T668 688T883 720L797 671Q798 783 747 836T575 889Q502 889
434 855T339 738L119 807Q159 944 271 1027T575 1110Q719 1110 828 1063T991 909Q1020 852 1026 793T1032 663V0H821V234L856 196Q783 79 686 25T442 -30ZM490 162Q572 162 630 191T722 262T769 341Q788 387 790 446T793 543L867 521Q758 504 680 491T546 467T447
441Q405 426 376 406T332 360T316 299Q316 259 336 229T394 180T490 162Z" />
<glyph unicode="&#xe5;" horiz-adv-x="1152" d="M589 1192Q519 1192 461 1226T367 1319T332 1449Q332 1520 367 1578T460 1671T589 1706Q661 1706 719 1672T812 1579T847 1449Q847 1378 812 1320T719 1227T589 1192ZM589 1339Q636 1339 667 1371T699 1449Q699
1495 668 1527T589 1559Q544 1559 512 1527T479 1449Q479 1404 511 1372T589 1339ZM442 -30Q325 -30 244 14T122 133T80 296Q80 374 106 436T186 544T326 619Q391 640 478 657T668 688T883 720L797 671Q798 783 747 836T575 889Q502 889 434 855T339 738L119 807Q159
944 271 1027T575 1110Q719 1110 828 1063T991 909Q1020 852 1026 793T1032 663V0H821V234L856 196Q783 79 686 25T442 -30ZM490 162Q572 162 630 191T722 262T769 341Q788 387 790 446T793 543L867 521Q758 504 680 491T546 467T447 441Q405 426 376 406T332 360T316
299Q316 259 336 229T394 180T490 162Z" />
<glyph unicode="&#xe6;" horiz-adv-x="1872" d="M1326 -30Q1167 -30 1050 42T869 241T805 529Q805 703 868 834T1045 1037T1314 1110Q1479 1110 1588 1029T1749 803T1789 473H1562V561Q1561 720 1510 809T1313 899Q1215 899 1156 853T1072 725T1046 540Q1046 383
1113 290T1313 196Q1393 196 1455 234T1551 350L1776 278Q1738 181 1669 112T1511 7T1326 -30ZM490 161Q581 161 653 204T755 305Q773 337 782 376T794 456T795 537L877 502L629 478Q589 475 536 467T432 439T349 387T316 298Q316 237 362 199T490 161ZM455 -30Q275
-30 178 60T80 290Q80 377 114 437T205 534T328 593T462 625T582 642L845 668L792 623Q802 720 776 778T697 863T576 889Q497 889 432 854T337 741L119 807Q152 892 216 960T373 1069T582 1110Q756 1110 863 1038T1009 839Q1026 784 1029 733T1032 649L913 227Q862
134 793 78T639 -4T455 -30ZM973 473V662H1676V473H973Z" />
<glyph unicode="&#xe7;" horiz-adv-x="1151" d="M574 -483Q534 -483 500 -473T436 -447L489 -304Q530 -318 553 -318Q583 -318 599 -301T616 -264Q616 -225 577 -207T485 -174L556 31L702 32L662 -84Q720 -112 752 -158T784 -269Q784 -364 722 -423T574 -483ZM609
-30Q442 -30 324 44T144 248T80 540Q81 706 145 834T329 1036T612 1110Q796 1110 923 1018T1090 765L850 700Q822 787 757 835T609 884Q515 884 454 840T364 717T335 540Q335 386 404 291T609 196Q705 196 760 240T844 367L1090 312Q1040 147 915 59T609 -30Z"
/>
<glyph unicode="&#xe8;" horiz-adv-x="1204" d="M528 1235L374 1605H556L711 1235H528ZM631 -30Q467 -30 343 41T150 238T80 528Q80 705 148 835T337 1038T617 1110Q785 1110 902 1032T1077 810T1120 473H881V561Q880 737 819 818T627 899Q479 899 407 808T335
540Q335 376 407 286T617 196Q706 196 770 235T870 350L1108 278Q1046 132 917 51T631 -30ZM259 473V655H1002V473H259Z" />
<glyph unicode="&#xe9;" horiz-adv-x="1204" d="M731 1235H548L702 1605H885L731 1235ZM631 -30Q467 -30 343 41T150 238T80 528Q80 705 148 835T337 1038T617 1110Q785 1110 902 1032T1077 810T1120 473H881V561Q880 737 819 818T627 899Q479 899 407 808T335
540Q335 376 407 286T617 196Q706 196 770 235T870 350L1108 278Q1046 132 917 51T631 -30ZM259 473V655H1002V473H259Z" />
<glyph unicode="&#xea;" horiz-adv-x="1204" d="M240 1235L513 1550H715L988 1235H763L614 1413L465 1235H240ZM631 -30Q467 -30 343 41T150 238T80 528Q80 705 148 835T337 1038T617 1110Q785 1110 902 1032T1077 810T1120 473H881V561Q880 737 819 818T627 899Q479
899 407 808T335 540Q335 376 407 286T617 196Q706 196 770 235T870 350L1108 278Q1046 132 917 51T631 -30ZM259 473V655H1002V473H259Z" />
<glyph unicode="&#xeb;" horiz-adv-x="1204" d="M714 1247V1467H934V1247H714ZM301 1247V1467H521V1247H301ZM631 -30Q467 -30 343 41T150 238T80 528Q80 705 148 835T337 1038T617 1110Q785 1110 902 1032T1077 810T1120 473H881V561Q880 737 819 818T627 899Q479
899 407 808T335 540Q335 376 407 286T617 196Q706 196 770 235T870 350L1108 278Q1046 132 917 51T631 -30ZM259 473V655H1002V473H259Z" />
<glyph unicode="&#xec;" horiz-adv-x="561" d="M185 1235L31 1605H214L368 1235H185ZM160 0V1080H401V0H160Z" />
<glyph unicode="&#xed;" horiz-adv-x="561" d="M375 1235H192L347 1605H530L375 1235ZM160 0V1080H401V0H160Z" />
<glyph unicode="&#xee;" horiz-adv-x="561" d="M-81 1235L193 1550H395L668 1235H443L294 1413L144 1235H-81ZM160 0V1080H401V0H160Z" />
<glyph unicode="&#xef;" horiz-adv-x="561" d="M377 1247V1467H597V1247H377ZM-36 1247V1467H184V1247H-36ZM160 0V1080H401V0H160Z" />
<glyph unicode="&#xf0;" horiz-adv-x="1193" d="M597 -30Q443 -30 327 37T146 224T80 502Q80 661 145 781T327 969T597 1036Q672 1037 739 1016T883 947Q870 1044 802 1127T632 1263T412 1326L448 1511Q605 1506 727 1447T929 1277Q996 1191 1036 1086T1094 840T1113
509Q1113 345 1050 224T871 36T597 -30ZM597 184Q728 184 799 269T871 504Q871 654 799 738T597 822Q464 823 393 740T322 504Q322 351 393 268T597 184ZM634 1075L500 1193L821 1566L956 1447L634 1075Z" />
<glyph unicode="&#xf1;" horiz-adv-x="1251" d="M794 1240Q746 1240 703 1261T620 1309T546 1358T482 1379Q449 1379 438 1347T439 1267H287Q259 1387 301 1470T460 1554Q508 1554 551 1533T634 1485T708 1436T773 1415Q804 1415 816 1447T815 1528H967Q997 1409
954 1325T794 1240ZM887 0V520Q887 571 880 633T848 752T772 847T635 884Q589 884 544 869T463 818T404 718T382 555L239 616Q239 754 292 866T450 1044T706 1111Q826 1111 904 1071T1028 969T1096 837T1124 705T1131 603V0H887ZM138 0V1080H353V745H382V0H138Z"
/>
<glyph unicode="&#xf2;" horiz-adv-x="1236" d="M515 1235L360 1605H543L698 1235H515ZM617 -30Q455 -30 334 43T147 244T80 540Q80 710 148 838T337 1038T617 1110Q780 1110 901 1037T1089 836T1156 540Q1156 372 1089 244T900 43T617 -30ZM617 196Q761 196 831
292T901 540Q901 697 830 790T617 884Q520 884 458 841T365 720T335 540Q335 383 406 290T617 196Z" />
<glyph unicode="&#xf3;" horiz-adv-x="1236" d="M712 1235H529L683 1605H866L712 1235ZM617 -30Q455 -30 334 43T147 244T80 540Q80 710 148 838T337 1038T617 1110Q780 1110 901 1037T1089 836T1156 540Q1156 372 1089 244T900 43T617 -30ZM617 196Q761 196 831
292T901 540Q901 697 830 790T617 884Q520 884 458 841T365 720T335 540Q335 383 406 290T617 196Z" />
<glyph unicode="&#xf4;" horiz-adv-x="1236" d="M241 1235L515 1550H717L990 1235H765L616 1413L466 1235H241ZM617 -30Q455 -30 334 43T147 244T80 540Q80 710 148 838T337 1038T617 1110Q780 1110 901 1037T1089 836T1156 540Q1156 372 1089 244T900 43T617
-30ZM617 196Q761 196 831 292T901 540Q901 697 830 790T617 884Q520 884 458 841T365 720T335 540Q335 383 406 290T617 196Z" />
<glyph unicode="&#xf5;" horiz-adv-x="1236" d="M786 1240Q738 1240 695 1261T612 1309T538 1358T474 1379Q441 1379 430 1347T431 1267H279Q251 1387 293 1470T452 1554Q500 1554 543 1533T626 1485T700 1436T765 1415Q796 1415 808 1447T807 1528H959Q989 1409
946 1325T786 1240ZM617 -30Q455 -30 334 43T147 244T80 540Q80 710 148 838T337 1038T617 1110Q780 1110 901 1037T1089 836T1156 540Q1156 372 1089 244T900 43T617 -30ZM617 196Q761 196 831 292T901 540Q901 697 830 790T617 884Q520 884 458 841T365 720T335
540Q335 383 406 290T617 196Z" />
<glyph unicode="&#xf6;" horiz-adv-x="1236" d="M716 1247V1467H936V1247H716ZM302 1247V1467H522V1247H302ZM617 -30Q455 -30 334 43T147 244T80 540Q80 710 148 838T337 1038T617 1110Q780 1110 901 1037T1089 836T1156 540Q1156 372 1089 244T900 43T617 -30ZM618
196Q761 196 831 292T901 540Q901 697 830 790T617 884Q520 884 458 841T365 720T335 541Q335 383 406 290T618 196Z" />
<glyph unicode="&#xf7;" horiz-adv-x="1080" d="M120 626V815H960V626H120ZM500 902V1149H747V902H500ZM500 418V665H747V418H500Z" />
<glyph unicode="&#xf8;" horiz-adv-x="1236" d="M212 -25L52 135L231 314L303 351L842 888L863 944L1024 1105L1184 944L1013 774L954 749L425 220L380 143L212 -25ZM617 -30Q455 -30 334 43T147 244T80 540Q80 710 148 838T337 1038T617 1110Q780 1110 901 1037T1089
836T1156 540Q1156 372 1089 244T900 43T617 -30ZM617 196Q761 196 831 292T901 540Q901 697 830 790T617 884Q520 884 458 841T365 720T335 540Q335 383 406 290T617 196Z" />
<glyph unicode="&#xf9;" horiz-adv-x="1251" d="M526 1235L372 1605H555L709 1235H526ZM545 -31Q425 -31 347 9T223 111T155 243T127 375T120 477V1080H364V560Q364 510 371 448T403 328T479 233T616 196Q662 196 707 211T788 262T847 363T869 525L1012 464Q1012
326 959 214T801 36T545 -31ZM898 0V335H869V1080H1111V0H898Z" />
<glyph unicode="&#xfa;" horiz-adv-x="1251" d="M696 1235H514L668 1605H851L696 1235ZM545 -31Q425 -31 347 9T223 111T155 243T127 375T120 477V1080H364V560Q364 510 371 448T403 328T479 233T616 196Q662 196 707 211T788 262T847 363T869 525L1012 464Q1012
326 959 214T801 36T545 -31ZM898 0V335H869V1080H1111V0H898Z" />
<glyph unicode="&#xfb;" horiz-adv-x="1251" d="M238 1235L511 1550H713L986 1235H761L612 1413L463 1235H238ZM545 -31Q425 -31 347 9T223 111T155 243T127 375T120 477V1080H364V560Q364 510 371 448T403 328T479 233T616 196Q662 196 707 211T788 262T847 363T869
525L1012 464Q1012 326 959 214T801 36T545 -31ZM898 0V335H869V1080H1111V0H898Z" />
<glyph unicode="&#xfc;" horiz-adv-x="1251" d="M712 1247V1467H932V1247H712ZM299 1247V1467H519V1247H299ZM545 -31Q425 -31 347 9T223 111T155 243T127 375T120 477V1080H364V560Q364 510 371 448T403 328T479 233T616 196Q662 196 707 211T788 262T847 363T869
525L1012 464Q1012 326 959 214T801 36T545 -31ZM898 0V335H869V1080H1111V0H898Z" />
<glyph unicode="&#xfd;" horiz-adv-x="1119" d="M663 1235H480L635 1605H818L663 1235ZM282 -480L490 91L494 -77L23 1080H274L608 224H544L869 1080H1110L508 -480H282Z" />
<glyph unicode="&#xfe;" horiz-adv-x="1232" d="M140 850V1440H382V850H140ZM659 -30Q501 -30 394 45T233 249T179 540Q179 703 233 832T391 1035T650 1110Q803 1110 915 1036T1090 833T1152 540Q1152 378 1091 249T919 45T659 -30ZM138 -480V1080H351V322H381V-480H138ZM622
186Q716 186 777 233T867 360T897 540Q897 638 867 718T774 846T614 894Q522 894 464 850T379 726T351 540Q351 435 378 355T465 231T622 186Z" />
<glyph unicode="&#xff;" horiz-adv-x="1119" d="M669 1247V1467H889V1247H669ZM256 1247V1467H476V1247H256ZM282 -480L490 91L494 -77L23 1080H274L608 224H544L869 1080H1110L508 -480H282Z" />
<glyph unicode="&#x2013;" horiz-adv-x="1080" d="M120 536V725H960V536H120Z" />
<glyph unicode="&#x2014;" horiz-adv-x="1560" d="M120 536V725H1440V536H120Z" />
<glyph unicode="&#x2018;" horiz-adv-x="568" d="M398 929Q275 908 214 975T152 1173V1440H398V1183H271Q265 1138 274 1103T311 1048T384 1032L398 929Z" />
<glyph unicode="&#x2019;" horiz-adv-x="568" d="M170 928L184 1032Q230 1028 257 1047T293 1102T298 1183H170V1440H417V1173Q417 1042 355 975T170 928Z" />
<glyph unicode="&#x201a;" horiz-adv-x="607" d="M120 -255L134 -151Q180 -155 207 -136T243 -81T248 0H120V257H367V-10Q367 -141 305 -208T120 -255Z" />
<glyph unicode="&#x201c;" horiz-adv-x="902" d="M742 1443L727 1339Q681 1343 654 1324T618 1269T614 1188H742V931H495V1198Q495 1329 557 1396T742 1443ZM407 1443L392 1339Q346 1343 319 1324T283 1269T279 1188H407V931H160V1198Q160 1329 222 1396T407 1443Z" />
<glyph unicode="&#x201d;" horiz-adv-x="902" d="M160 932L174 1036Q220 1032 247 1051T283 1106T288 1187H160V1444H407V1177Q407 1046 345 979T160 932ZM495 932L509 1036Q555 1032 582 1051T618 1106T623 1187H495V1444H742V1177Q742 1046 680 979T495 932Z" />
<glyph unicode="&#x201e;" horiz-adv-x="902" d="M160 -255L174 -151Q220 -155 247 -136T283 -81T288 0H160V257H407V-10Q407 -141 345 -208T160 -255ZM495 -255L509 -151Q555 -155 582 -136T618 -81T623 0H495V257H742V-10Q742 -141 680 -208T495 -255Z" />
<glyph unicode="&#x2022;" horiz-adv-x="1407" d="M709 347Q629 347 563 384T459 485T420 630Q420 711 459 775T563 876T709 913Q784 913 847 877T949 776T987 630Q987 550 949 486T848 384T709 347Z" />
<glyph unicode="&#x2039;" horiz-adv-x="1275" d="M760 150L280 630L760 1110L910 961L568 630L910 299L760 150Z" />
<glyph unicode="&#x203a;" horiz-adv-x="1275" d="M514 150L365 299L706 630L365 961L514 1110L995 630L514 150Z" />
</font>
</defs>
</svg>
